#TITLE:凌晨飞行;
#SUBTITLE:;
#ARTIST:Donovanlee;
#TITLETRANSLIT:;
#SUBTITLETRANSLIT:;
#ARTISTTRANSLIT:;
#CREDIT:;
#BANNER:賿_logo.jpg;
#BACKGROUND:賿_BG.jpg;
#LYRICSPATH:;
#CDTITLE:Lan.png;
#MUSIC:賿.mp3;
#OFFSET:-0.060;
#SAMPLESTART:100.000;
#SAMPLELENGTH:12.000;
#SELECTABLE:YES;
#BPMS:0.000=160.000;
#STOPS:;
#BGCHANGES:;
// cache tags:
#FIRSTBEAT:0.000;
#LASTBEAT:564.000;
#SONGFILENAME:Songs/lan sky/lingchenfeixing/賿.sm;
#HASMUSIC:1;
#HASBANNER:1;
#MUSICLENGTH:212.225;
// end cache tags

//---------------dance-single - sky----------------
#NOTES:
     dance-single:
     sky:
     Hard:
     10:
     0.703,1.000,0.542,0.094,0.511,904.000,115.000,20.000,0.000,6.000:

1000
1000
1000
1000
,
1000
1000
1000
1000
,
1000
0000
0000
0000
1000
0000
0000
0000
1000
0000
0010
0100
1001
0000
0000
0000
,
0011
0100
0000
0010
0100
0000
0010
0100
,
0000
0010
0001
0000
0010
0100
1000
0010
,
0100
0010
0000
0100
0010
0000
0100
0010
,
0000
0000
0100
0000
0000
1000
0000
0000
0100
0000
0010
0000
0001
0000
0010
0000
,
1000
0001
0000
1000
0001
0000
1000
0001
,
0000
1000
0001
0000
0100
0010
1000
0001
,
0001
1000
0000
0001
1000
0000
0001
1000
,
0000
0000
0001
0000
0000
1000
0000
0000
0010
0000
0100
0000
0001
0000
1000
0000
,
0010
0001
0000
0010
0001
0000
0010
0001
,
0000
0000
0010
0000
0000
0001
0000
0000
0001
0000
0010
0000
0100
0000
1000
0000
,
0100
1000
0000
0100
1000
0000
0100
1000
,
0000
0100
1000
0000
1000
0100
0010
0001
,
0010
0100
0000
0010
0100
0000
0010
0100
,
0000
0010
0100
0000
0001
0010
0100
1000
,
0100
0010
0000
0100
0010
0000
0100
0010
,
1000
0100
0010
0001
0001
0010
0100
1000
0100
0000
0100
0000
1001
0000
0000
0000
,
0220
0000
0000
0000
0000
0000
0000
0000
0000
0000
0000
0000
0000
0000
0000
0330
,
0000
1000
0100
0010
0100
0000
0010
0020
,
1000
0000
0000
0000
0100
0000
0000
0000
1000
0000
0000
0000
0100
0000
0000
0030
,
0101
0000
0010
0100
0010
0000
0001
1000
0010
0000
0100
0000
0001
0000
1000
0000
,
0120
0000
0000
0000
0001
0000
0000
0000
0100
0000
0000
0000
0001
0000
0000
0030
,
0000
1000
0100
0010
0001
0000
0010
0100
,
0010
0000
1000
0001
0100
0000
1010
0000
,
0100
0001
0110
1000
0100
0010
0100
0010
,
1012
0000
0000
0000
0100
0000
0000
0000
1000
0000
0000
0000
0100
0000
0000
0003
,
0000
0000
0001
0000
0010
0000
0100
0000
1010
0000
0000
0000
0000
0101
0000
0000
,
0020
0000
0000
0000
0000
0000
0000
0000
0000
0000
0000
0000
0000
0000
0000
0030
,
1000
0000
0010
0100
0010
0000
0001
1000
0010
0000
0100
0000
0001
0000
1000
0000
,
0012
0000
0000
0000
1000
0000
0000
0000
0010
0000
0000
0000
1000
0000
0000
0003
,
1000
0010
0011
0010
1100
0000
0101
0010
,
1010
0000
0100
0001
1000
0000
0120
0000
,
1000
0100
1000
0100
0001
0100
0001
0100
1000
0001
1000
0031
0100
0010
0100
0010
,
1001
0000
0000
0010
0000
0000
0100
0000
0000
0000
0000
0001
0000
0000
0000
0010
,
0001
0100
1000
0010
0001
0100
0010
1000
,
0010
0001
0010
0100
1000
0010
0000
0020
,
0000
0000
0000
0000
0000
0000
0000
0100
0000
0000
0000
1000
0000
0000
0001
0030
,
1201
0010
0001
0010
,
0001
0000
0000
0000
0010
0000
0000
0000
0001
0000
0000
0000
0010
0000
0000
0300
,
1000
0100
0010
0001
0001
0010
0100
1000
0100
0010
0001
1000
0100
0010
0001
0010
,
0001
0010
0100
1000
0100
0010
0001
0010
0100
0010
0100
0000
1001
0000
0000
0000
,
0110
0000
0000
0010
0000
0000
0000
0100
0000
0010
0000
0000
0000
0000
0010
0000
,
0100
0000
0010
0000
1000
0001
0000
1000
0001
0000
0100
0000
0010
0000
0001
0000
,
1100
0000
0101
0000
0110
0010
0000
0020
,
0000
0000
0000
0000
0000
0000
0000
0000
1000
0000
0000
0100
0000
0000
0001
0030
,
1201
0010
1000
0010
,
1000
0000
0000
0000
0010
0000
0000
0000
1000
0000
0010
0000
1000
0000
0010
0300
,
1001
0000
0000
0000
0000
1001
0000
0000
0000
0000
1001
0000
0000
0000
0000
0000
,
1001
0000
0000
0000
0000
0000
0000
0000
1000
0000
0100
0010
0001
0000
0010
0100
,
0010
0000
1000
0100
0001
0000
0110
0000
1010
0000
0100
0000
0000
0000
0100
0000
,
0010
0100
0000
1001
0011
1100
0000
0000
,
0100
0000
0010
0100
0001
0000
0010
0000
1010
0000
0101
0000
0000
0000
1010
0000
,
0101
0000
0000
0000
0000
0000
0100
0010
0100
0000
0011
0000
0000
0000
0000
0000
,
1001
0000
0100
1000
0100
0000
0010
0000
0001
0000
0010
0000
0000
0000
1100
0000
,
0110
0001
0000
1010
0101
0101
0010
0010
,
1010
0000
0010
0100
0010
0000
0101
0000
0010
0000
0101
0000
0000
0000
1010
0000
,
1010
0000
0101
0000
0000
0000
0010
0000
0010
0100
1000
0010
0001
0010
0100
1000
,
0011
0000
0000
0010
0000
0000
0100
0000
0010
0000
0100
0000
0010
0000
1000
0000
,
0101
0000
0000
0000
0000
0000
0000
0000
0001
0010
0100
1000
0010
0000
0010
0000
,
0100
0000
0010
0000
0001
0000
0000
0000
0100
0000
0000
0001
0000
0000
1010
0000
,
0011
0000
0100
0000
0000
0000
0010
0100
0010
0000
1001
0000
0000
0000
0000
0000
,
1101
1001
0010
0100
0010
1000
0001
0100
,
1010
0000
0000
0000
0000
0000
0101
0000
0010
0100
1000
0001
0010
0010
0100
0000
,
1000
0000
0011
0000
0000
0000
0000
0000
0000
0000
1000
0100
0010
0001
0100
0010
,
0001
1100
0000
0000
0000
0000
0000
0000
,
1000
0100
1000
0100
1000
0010
1000
0010
0100
0001
0100
0001
0010
1000
0010
1000
,
0100
0010
1001
0100
0010
0001
0010
0001
0010
0100
1000
0100
0010
1000
0100
0010
,
0001
0001
0010
0100
1000
0100
0010
0100
0010
0001
0010
0001
0010
0100
1000
0100
,
0010
0100
0010
0001
1000
0100
0010
0001
0100
0000
0000
0000
0000
0000
0000
0000
,
0010
0000
0010
0100
1000
0001
0010
0100
1000
0100
0010
0001
0100
0010
1000
0001
,
0100
0010
1000
0001
0100
0010
1000
0001
1000
0100
1000
0100
1000
0100
1000
0100
,
0001
0010
0001
0010
0001
0010
0001
0010
1000
0100
0010
0001
0001
0010
0100
1000
,
0100
0010
0100
0010
1000
0001
0100
0010
1001
0000
0000
0000
0000
0000
0000
0000
,
0100
0000
0010
0000
0001
0000
0000
0010
0000
0000
1000
0000
0000
0010
0000
0000
,
0000
0000
0000
0000
,
0100
0000
0001
0000
0010
0000
0000
1000
0000
0000
0010
0000
0000
0001
0000
0000
,
0000
0000
0000
0000
,
1100
0000
0001
0000
0010
0000
0000
0100
0000
0000
0010
0000
0000
1000
0000
0000
,
0000
0100
0000
0000
0000
0000
0000
0000
,
0011
0000
0100
0000
0001
0000
0000
0100
0000
0000
0010
0000
0000
1000
0000
0000
,
0000
0001
0000
0000
0000
0000
0000
0000
,
1010
0000
0001
0000
0010
0000
0000
0100
0000
0000
0010
0000
0000
1000
0000
0000
,
0000
0010
0000
0000
0000
0000
0000
0000
,
0001
0000
0100
0000
0010
0000
0000
1000
0000
0000
0100
0000
0000
0001
0000
0000
,
1000
0010
0000
0000
0100
0001
1000
0010
,
0101
0000
0010
0000
1000
0000
0000
0010
0000
0000
0001
0000
0000
0100
0000
0000
,
0000
0010
0000
0000
0000
0000
0000
0000
,
0011
0000
1000
0000
0100
0000
0000
0001
0000
0000
0010
0000
0000
0100
0000
0000
,
1000
0000
0000
0000
0010
0000
0100
0000
0001
0000
0010
0100
1000
0100
0010
1000
,
0001
0010
1000
0100
0001
0010
0100
1000
0100
0010
0001
0100
0010
1000
0010
0000
,
0001
0010
0100
0000
0010
0001
1000
0100
0001
0010
0100
1000
0010
0001
1000
0010
,
0100
0001
0010
0000
1000
0001
0100
0000
0010
0100
1000
0100
0010
0001
0010
0001
,
0100
1000
0100
1000
0100
1000
0100
1000
0010
0001
0010
0001
0010
0001
0010
0001
,
0100
0010
0100
0010
0100
0010
0100
0010
1000
0001
1000
0001
1000
0001
1000
0001
,
0100
0010
1000
0001
0100
0010
1000
0001
0100
1000
0001
0010
0100
1000
0001
0010
,
0100
0001
1000
0010
0100
0001
1000
0010
0001
0100
0010
1000
0010
1000
0010
1000
,
0100
0010
0001
1000
0100
0010
0001
0010
1010
0000
0000
0000
0000
0000
0000
0000
,
1011
0100
1000
0001
,
0101
1000
0010
0100
,
0110
0001
1000
0100
0001
0000
0010
0000
,
0010
0100
1000
0001
0010
0100
1000
0100
0010
0100
0010
0001
0100
0001
0010
1000
,
0022
0000
0000
0000
0000
0000
0000
0000
0000
0000
0000
0000
0000
0000
0000
0033
,
0000
0000
0000
0000
,
1001
0000
1000
0000
0010
0000
1000
0000
1000
0011
0000
0000
0100
0000
0010
0000
,
1010
0000
0000
0000
0001
0000
0000
0000
0001
0010
0100
0000
1000
0100
0010
0000
,
0101
0000
0010
0000
1001
0000
0000
0100
,
1000
0001
0010
0100
1000
0100
0100
0010
,
0001
0010
0100
1000
0010
0100
0000
0020
,
0000
0000
0000
0000
0000
0000
0000
0030
1000
0000
0000
0100
0000
0000
0010
0000
,
0002
0000
0000
0000
,
0000
0000
0000
0000
0000
0000
0000
0000
0000
0000
0000
0000
0000
0000
0000
0003
,
1010
0000
0000
1010
0000
0000
0101
0000
,
0000
0000
0101
0000
0000
0000
0000
0000
1001
0000
0000
0000
0010
0100
0010
0100
,
1001
0000
0000
0010
0000
0100
0000
0000
0000
0000
0010
0000
0000
0000
0100
0000
,
1000
0100
0010
0001
0010
0100
1000
0100
,
0001
0100
0010
0001
1000
0100
0000
0010
,
0000
0000
0000
0000
0000
0000
0000
0000
0010
0000
0000
1000
0000
0000
0001
0000
,
0020
0000
0000
0000
,
0000
0000
0000
0000
0000
0000
0000
0000
0000
0000
0000
0000
0000
0000
0000
0030
,
1001
0000
0000
1001
0000
0000
1001
0000
,
0000
0000
0110
0000
0000
0000
0000
0000
1001
0000
0010
0100
0010
0000
0010
0100
,
1001
0010
1000
0010
,
1000
0010
1001
0101
,
1010
0001
1000
0010
,
1000
0001
0101
1010
,
0101
1000
0010
1000
,
0001
0100
1010
0110
,
0011
1000
0010
1000
,
0010
1000
0101
1010
,
1001
0010
0001
1000
,
0010
0001
1010
0011
,
0110
0001
0100
0001
,
0100
0001
1100
0011
,
0110
1000
0010
1000
,
0010
0000
1000
0000
0010
0100
1010
0000
,
0101
0010
1000
0010
,
0100
0000
0001
0000
1010
0101
0110
0001
,
2220
0000
0000
0000
,
0000
0000
0000
0000
,
3330
0000
0000
0000
;
